Welcome to Coldplaying!

By registering with us, you'll be able to discuss, share and private message with other members of our community.

SignUp Now!
[2010-01-23] A Message - Hope for Haiti Now, The Hospital Club, London, England

TS [2010-01-23] A Message - Hope for Haiti Now, The Hospital Club, London, England TS

No permission to download

Media Info:
General
ID : 1 (0x1)
Format : MPEG-TS
File size : 435 MiB
Duration : 4 min 4 s
Overall bit rate mode : Variable
Overall bit rate : 14.9 Mb/s
Movie name : HOPE FOR HAITI NOW
Law rating : TV-G

Video
ID : 4096 (0x1000)
Menu ID : 1 (0x1)
Format : MPEG Video
Format version : Version 2
Format profile : [email protected]
Format settings : CustomMatrix / BVOP
Format settings, BVOP : Yes
Format settings, Matrix : Custom
Format settings, GOP : Variable
Format settings, picture structure : Frame
Codec ID : 2
Duration : 4 min 4 s
Bit rate mode : Variable
Bit rate : 13.8 Mb/s
Maximum bit rate : 18.0 Mb/s
Width : 1 920 pixels
Height : 1 080 pixels
Display aspect ratio : 16:9
Frame rate : 29.970 (30000/1001) FPS
Standard : Component
Color space : YUV
Chroma subsampling : 4:2:0
Bit depth : 8 bits
Scan type : Interlaced
Scan order : Bottom Field First
Compression mode : Lossy
Bits/(Pixel*Frame) : 0.222
Stream size : 402 MiB (92%)
Color primaries : BT.709
Transfer characteristics : BT.709
Matrix coefficients : BT.709

Audio
ID : 4097 (0x1001)
Menu ID : 1 (0x1)
Format : AC-3
Format/Info : Audio Coding 3
Codec ID : 129
Duration : 4 min 4 s
Bit rate mode : Constant
Bit rate : 384 kb/s
Channel(s) : 2 channels
Channel positions : Front: L R
Sampling rate : 48.0 kHz
Frame rate : 31.250 FPS (1536 SPF)
Bit depth : 16 bits
Compression mode : Lossy
Stream size : 11.2 MiB (3%)
Language : English
Service kind : Complete Main

Text #1
ID : 4096 (0x1000)-CC1
Menu ID : 1 (0x1)
Format : EIA-608
Muxing mode : A/53 / DTVCC Transport
Muxing mode, more info : Muxed in Video #1
Duration : 4 min 4 s
Bit rate mode : Constant
Stream size : 0.00 Byte (0%)
CaptionServiceName : CC1

Text #2
ID : 4096 (0x1000)-CC3
Menu ID : 1 (0x1)
Format : EIA-608
Muxing mode : A/53 / DTVCC Transport
Muxing mode, more info : Muxed in Video #1
Duration : 4 min 4 s
Bit rate mode : Constant
Stream size : 0.00 Byte (0%)
CaptionServiceName : CC3
Top